All Things Must Pass(2015)MPEG-4[DaScubaDude]

DOWNLOAD TORRENT DOWNLOAD DOWNLOAD ANONYMOUS

Posted on July 15, 2017 in Movies » Documentary

Size: 930.3 MB , Seeds: 4 , Peers: 0 ( Updated July 21, 2017 - Refresh )

* Download via Magnet Link , * To download files you need a Bittorrent Client , * How to download torrents from Bit Torrent Scene?

Scrape History ( seeds + peers )

Internal Files

All things must pass
All_Things_Must _Pass_Title1.mp4   929.59 MB

Hash Code

b0ce312c83a646aa49aecc3a9a3e834efd4cc790

Description

SCREENSHOT

[youtube]JCPYCIzSw_o[/youtube]

All Things Must Pass: The Rise and Fall of Tower Records (2015)

Not Rated | 1h 34min | Documentary, History, Music | 16 October 2015 (USA)

'All Things Must Pass' is a documentary that explores the rise and fall of Tower Records, and its legacy forged by its rebellious founder, Russ Solomon.

Director: Colin Hanks

Writer: Steven Leckart

Stars: Russ Solomon, Chuck D., Chris Cornell |

General

Complete name : All things must pass\All_Things_Must _Pass_Title1.mp4

Format : MPEG-4

Format profile : Base Media

Codec ID : isom (isom/iso2/avc1/mp41)

File size : 930 MiB

Duration : 1 h 36 min

Overall bit rate : 1 344 kb/s

Movie name : All_Things_Must_Pass

Writing application : Lavf54.6.100


Video

ID : 1

Format : AVC

Format/Info : Advanced Video Codec

Format profile : [email protected]/* */

Format settings, CABAC : No

Format settings, ReFrames : 6 frames

Codec ID : avc1

Codec ID/Info : Advanced Video Coding

Duration : 1 h 36 min

Bit rate : 1 209 kb/s

Width : 720 pixels

Height : 404 pixels

Display aspect ratio : 16:9

Frame rate mode : Constant

Frame rate : 29.970 (30000/1001) FPS

Color space : YUV

Chroma subsampling : 4:2:0

Bit depth : 8 bits

Scan type : Progressive

Bits/(Pixel*Frame) : 0.139

Stream size : 836 MiB (90%)


Audio

ID : 2

Format : AAC

Format/Info : Advanced Audio Codec

Format profile : LC

Codec ID : 40

Duration : 1 h 36 min

Bit rate mode : Constant

Bit rate : 128 kb/s

Channel(s) : 2 channels

Channel positions : Front: L R

Sampling rate : 44.1 kHz

Frame rate : 43.066 FPS (1024 spf)

Compression mode : Lossy

Stream size : 88.6 MiB (10%)

Default : Yes

Alternate group : 1


Torrent location

https://www.1337x.to/torrent/2316852/All-Things-Must-Pass-2015-MPEG-4-DaScubaDude/

Trackers

Refresh Leechers : Updated July 21, 2017

1. http://bigfoot1942.sektori.org:6969/announce

2. http://tracker2.wasabii.com.tw:6969/announce

3. http://tracker.mg64.net:6881/announce

4. http://bt.artvid.ru:6969/announce

5. http://open.acgtracker.com:1096/announce

6. http://tracker.opentrackr.org/announce

7. http://announce.torrentsmd.com:6969/announce

8. http://tracker.trackerfix.com/announce

9. http://tracker.opentrackr.org/announce

10. udp://tracker.openbittorrent.com:80/announce

11. udp://explodie.org:6969/announce

12. udp://mgtracker.org:6969/announce

13. udp://asnet.pw:2710/announce

14. udp://tracker.mgtracker.org:2710/announce

15. udp://tracker4.piratux.com:6969/announce

16. udp://tracker.trackerfix.com:80/announce

17. udp://tracker.pomf.se:80/announce

18. udp://torrent.gresille.org:80/announce

19. udp://tracker.x4w.co:6969/announce

20. udp://castradio.net:6969/announce

21. udp://p4p.arenabg.com:1337

22. udp://ipv4.tracker.harry.lu:80/announce

23. udp://inferno.demonoid.ooo:3389/announce

24. udp://tracker.sktorrent.net:6969/announce

25. udp://tracker.blackunicorn.xyz:6969/announce

26. udp://tracker.internetwarriors.net:1337/announce

27. udp://exodus.desync.com:6969/announce

28. udp://tracker.pirateparty.gr:6969/announce

29. udp://p4p.arenabg.ch:1337/announce

30. udp://glotorrents.pw:6969/announce

31. udp://eddie4.nl:6969/announce

32. udp://9.rarbg.me:2710/announce

33. udp://tracker.opentrackr.org:1337/announce

34. udp://tracker.zer0day.to:1337/announce

35. udp://tracker.trackerfix.com:80/announce

36. udp://9.rarbg.to:2710/announce

37. http://tracker.opentrackr.org:1337/announce

38. udp://tracker.leechers-paradise.org:6969/announce

39. udp://tracker.coppersurfer.tk:6969/announce

40. http://tracker2.itzmx.com:6961/announce

41. http://tracker1.wasabii.com.tw:6969/announce

42. udp://9.rarbg.to:2710/announce

43. udp://tracker.coppersurfer.tk:6969/announce

44. udp://tracker.opentrackr.org:1337/announce

Comments

You must log in to add a comment.

Embed Code

Sharing Widget

Top Movies ( auto generated report )

FILENAME SIZE SEEDS PEERS ADDED UPD
[i] Going in Style (2017) [1080p] [YTS AG] 1.47 GB 4379 1109 5 days 18 hours
[i] Going in Style (2017) [720p] [YTS AG] 713.31 MB 6134 2459 5 days 1 day
[i] The Circle (2017) [1080p] [YTS AG] 1.68 GB 4522 2933 4 days 3 days
[i] The Circle (2017) [720p] [YTS AG] 812.53 MB 4292 3059 4 days 3 days
[i] Colossal (2016) [720p] [YTS AG] 797.03 MB 1551 450 6 days 5 hours
[i] S W A T - Under Siege (2017) [720p] [YTS AG] 665.25 MB 2586 1468 5 days 4 days
[i] Colossal (2016) [1080p] [YTS AG] 1.66 GB 1348 411 6 days 5 hours
[i] Sleight (2016) [720p] [YTS AG] 658.87 MB 1278 697 6 days 5 hours
[i] S W A T - Under Siege (2017) [1080p] [YTS AG] 1.36 GB 1817 972 5 days 4 days
[i] The Girl from the Song (2017) [1080p] [YTS AG] 1.56 GB 1472 891 4 days 3 days