Death.of.a.Shadow.[Dood.van.een.Schaduw].2012.FLEMISH.BRRip.XviD-Kat

DOWNLOAD TORRENT DOWNLOAD DOWNLOAD ANONYMOUS

Posted on June 2, 2013 in Movies » Misc

Size: 500.3 MB , Seeds: 3 , Peers: 0 ( Updated June 19, 2017 - Refresh )

* Download via Magnet Link , * To download files you need a Bittorrent Client , * How to download torrents from Bit Torrent Scene?

Scrape History ( seeds + peers )

Internal Files

Death.of.a.Shadow.[Dood.van.een.Schaduw].2012.FLEMISH.720p.BRRip.XviD-Kat.avi
Death.of.a.Shadow.[Dood.van.een.Schaduw].2012.FLEMISH.720p.BRRip.XviD-Kat.avi   499.49 MB

Hash Code

27907a4e5c736d2abcbd4fa75d98d7044f60e2b1

Description


Death of a Shadow (2012)



SCREENSHOT



Plot: Stuck in a dark limbo between life and death, a deceased soldier Nathan Rijckx (Matthias Schoenaerts) collects shadows of dying men and women to buy back his own second chance at life. Obsessed by a girl he met the moment before he died, the thought of seeing his beloved again drives the soldier to regain access to the world of the living. But when he discovers that she's already in love with someone else, jealousy clouds his mind and pushes him toward a bitter decision, a decision not without its consequences...

Academy Award Nominee Best Live Action Short Film 2013.



Cast:

Matthias Schoenaerts ... Nathan Rijckx

Laura Verlinden ... Sarah Winters

Peter van den Eede ... Collector Of Shadows

Benjamin Ramon ... Daniel Hainaut

Amandine Zurbuchen ... Nurse

Brian Piezel ... Boran Kassovic

Denis Duron ... Jan Ternauw

Gregory Rabat ... New Photographer

Emile Boudaille ... Thomas Belcourt

Bruno Clément ... German Soldier

Franck Maréco ... German Soldier

Daniel Rechul ... German Soldier

Laurent Marchetti ... German Soldier

Guillaume Sentier ... German Soldier

Simon Robas ... German Soldier



Details

Original title: Dood van een Schaduw / Mort d'une ombre

Genre: Short | Drama | Fantasy

Runtime: 20 min

Country: Belgium | France

Language: Flemish | French

Trailer: http://www.youtube.com/watch?v=92hfifZ9GWA

Subtitles: http://www.subtitleseeker.com/2312702/Death+of+a+Shadow/Subtitles/



Director: Tom Van Avermaet

Writer: Tom Van Avermaet



IMDb: http://www.imdb.com/title/tt2312702/



--------------------------------------------------------------------------------



Awards & Nominations:



Academy Awards

2013

Nominated

Best Short Film, Live Action



Fargo Film Festival

2013

Won

Best Narrative Short



Gérardmer Film Festival

2013

Won

Best Short Film



European Film Awards

2013

Nominated

Best Short Film



L.A. Shorts Fest

2012

Won

Best of the Fest



Leuven International Short Film Festival

2012

Won

Audience Award



Valladolid International Film Festival

2012

Won

Prix UIP Valladolid (European Short Film)



--------------------------------------------------------------------------------



MediaInfo:



General

Format : AVI

Format/Info : Audio Video Interleave

File size : 499 MiB

Duration : 20mn 18s

Overall bit rate : 3 438 Kbps

Writing application : VirtualDubMod 1.5.10.2 (build 2540/release)

Writing library : VirtualDubMod build 2540/release



Video

ID : 0

Format : MPEG-4 Visual

Format profile : Advanced Simple@L5

Format settings, BVOP : 2

Format settings, QPel : No

Format settings, GMC : No warppoints

Format settings, Matrix : Default (H.263)

Muxing mode : Packed bitstream

Codec ID : XVID

Codec ID/Hint : XviD

Duration : 20mn 18s

Bit rate : 3 044 Kbps

Width : 1 280 pixels

Height : 536 pixels

Display aspect ratio : 2.40:1

Frame rate : 24.000 fps

Color space : YUV

Chroma subsampling : 4:2:0

Bit depth : 8 bits

Scan type : Progressive

Compression mode : Lossy

Bits/(Pixel*Frame) : 0.185

Stream size : 442 MiB (89%)

Writing library : XviD 64



Audio

ID : 1

Format : AC-3

Format/Info : Audio Coding 3

Mode extension : CM (complete main)

Format settings, Endianness : Big

Codec ID : 2000

Duration : 20mn 18s

Bit rate mode : Constant

Bit rate : 384 Kbps

Channel(s) : 6 channels

Channel positions : Front: L C R, Side: L R, LFE

Sampling rate : 48.0 KHz

Bit depth : 16 bits

Compression mode : Lossy

Stream size : 55.8 MiB (11%)

Alignment : Split accross interleaves

Interleave, duration : 42 ms (1.00 video frame)

Interleave, preload duration : 500 ms



--------------------------------------------------------------------------------



Screenshots:

SCREENSHOT


Torrent location

http://www.1337x.org/torrent/554633/0/

Trackers

Refresh Leechers : Updated June 19, 2017

1. udp://tracker.publicbt.com:80/announce

2. udp://tracker.openbittorrent.com:80/announce

3. udp://fr33domtracker.h33t.com:3310/announce

4. udp://tracker.istole.it:80/announce

5. http://p2pdl.com:2710/announce

6. http://exodus.desync.com/announce

7. udp://9.rarbg.com:2710/announce

8. http://tracker1.wasabii.com.tw:6969/announce

9. udp://fr33dom.h33t.com:3310/announce

10. http://www.h33t.com:3310/announce

Comments

You must log in to add a comment.

Embed Code

Sharing Widget

Related torrents

FILENAME SIZE SEEDS PEERS ADDED UPD
[i] 48.Hours.S29E51.Shadow.of.Death.WEB.x264-UNDERBELLY 396.59 MB 2 0 1 month 2 weeks
[i] 48.Hours.S29E51.Shadow.of.Death.1080p.HEVC.x265-MeGusta 751.19 MB 1 1 1 month 2 weeks
[i] Ken Burns The Civil War - 6of9 - Valley Of The Shadow Of Death 697.15 MB 0 0 8 years 6 months
[i] Gods Wars: Shadow of the Death v1.0 Android 5.58 MB 0 0 4 years 2 months
[i] Death.of.a.Shadow.2012.720p.WEB.XVID-AC3-PULSAR 522.5 MB 0 1 4 years 1 month
[i] Shadow (Jpn) - Forever Chaos (2008) [mp3@320] [Melodic Death Metal] 129.32 MB 0 0 1 year 4 months
[i] Shadow (Jpn) - Shadow (2001) [mp3@320] [Melodic Death Metal] 96.79 MB 0 0 1 year 4 months
[i] Collapse (UK) - ....In the Shadow Of Man (2015) [mp3@320] [Thrash/Death Metal] 98.54 MB 0 0 1 year 2 months
[i] Walking In The Shadow (Of Death Whiskey Tango Foxtrot Volume #4) - W. J. Lundy [Nm] 3.38 MB 0 0 1 year 1 month
[i] 48.Hours.S29E51.Shadow.of.Death.480p.x264-mSD 227.16 MB 0 0 1 month 2 weeks

Top Movies ( auto generated report )

FILENAME SIZE SEEDS PEERS ADDED UPD
[i] The Girl from the Song (2017) [1080p] [YTS AG] 1.56 GB 1142 335 6 days 5 hours
[i] Lego Scooby-Doo! Blowout Beach Bash (2017) [720p] [YTS AG] 564.21 MB 961 244 3 days 15 hours
[i] Tonight She Comes (2016) [720p] [YTS AG] 616.92 MB 955 821 4 days 3 days
[i] King.Arthur.Legend.of.the.Sword.2017.720p.WEB-DL.H264.AC3-EVO[EtHD].torrent 3.91 GB 852 368 2 days 1 day
[i] Lego Scooby-Doo! Blowout Beach Bash (2017) [1080p] [YTS AG] 1.17 GB 743 190 3 days 17 hours
[i] Phoenix Forgotten (2017) [720p] [YTS AG] 631.57 MB 834 349 3 days 2 days
[i] Charlie Charlie (2016) [1080p] [YTS AG] 1.28 GB 492 138 6 days 5 hours
[i] 일ë??일.2017.HDRip.720p.H264.AAC-KCM.mp4.torrent 1.77 GB 553 236 6 days 7 hours
[i] The Drowning (2016) [720p] [YTS AG] 719.07 MB 406 107 6 days 5 hours
[i] Charlie Charlie (2016) [720p] [YTS AG] 609.58 MB 603 208 6 days 5 hours