Silver Surfer - The Animated Series 1998 DVDrip XviD

DOWNLOAD TORRENT DOWNLOAD DOWNLOAD ANONYMOUS

Posted by NmelessOne •77 on June 12, 2017 in Anime » Cartoons , verified torrent

Size: 3.99 GB , Seeds: 2 , Peers: 1 ( Updated August 15, 2017 - Refresh )

* Download via Magnet Link , * To download files you need a Bittorrent Client , * How to download torrents from Bit Torrent Scene?

Scrape History ( seeds + peers )

Internal Files

Silver Surfer TAS 1998 DVDrip XviD
1x01 The Origin of the Silver Surfer Part 1 DVDRip XviD.avi   308.62 MB
1x02 The Origin of the Silver Surfer Part 2 DVDRip XviD.avi   320.13 MB
1x03 The Origin of the Silver Surfer Part 3 DVDRip XviD.avi   329.51 MB
1x04 The Planet of Dr. Moreau DVDRip XviD.avi   279.37 MB
1x05 Learning Curve Part 1 DVDRip XviD.avi   385.37 MB
1x06 Learning Curve Part 2 DVDRip XviD.avi   321.81 MB
1x07 Innervisions DVDRip XviD.avi   285.21 MB
1x08 Antibody DVDRip XviD.avi   313.32 MB
1x09 Second Foundation DVDRip XviD.avi   310.26 MB
1x10 Radical Justice DVDRip XviD.avi   332.8 MB
1x11 The Forever War DVDRip XviD.avi   267 MB
1x12 Return to Zenn-La DVDRip XviD.avi   326.85 MB
1x13 The End of Eternity Part 1 DVDRip XviD.avi   309.69 MB

Hash Code

1d2dc4ccbdd729e9ad2372d74a3ee3dc41c45d21

Description

All 13 episodes. (High Quality)

---------------
* General *
---------------

Format : AVI
Format/Info : Audio Video Interleave
File size : 309 MiB
Duration : 19mn 56s
Overall bit rate : 2 165 Kbps
Movie name : Silver Surfer (1998) 1x01: The Origin of the Silver Surfer #1. DVDRip x264 [gd]
Writing application : Lavf55.43.100

-------------
* Video *
-------------

ID : 0
Format : xvid
Codec ID : xvid
Duration : 19mn 56s
Bit rate : 2 056 Kbps
Width : 720 pixels
Height : 576 pixels
Display aspect ratio : 4:3
Frame rate : 25.000 fps
Standard : PAL
Bits/(Pixel*Frame) : 0.198
Stream size : 293 MiB (95%)

-------------
* Audio *
-------------

ID : 1
Format : MPEG Audio
Format version : Version 1
Format profile : Layer 3
Mode : Joint stereo
Mode extension : MS Stereo
Codec ID : 55
Codec ID/Hint : MP3
Duration : 19mn 54s
Bit rate mode : Constant
Bit rate : 96.0 Kbps
Channel(s) : 2 channels
Sampling rate : 48.0 KHz
Compression mode : Lossy
Stream size : 13.7 MiB (4%)
Alignment : Aligned on interleaves
Interleave, duration : 24 ms (0.60 video frame)
Interleave, preload duration : 24 ms
Writing library : LAME3.99.5


Thanks goes to the original encoders/providers, gd and DJDEDO.


Enjoy & Please Seed!

Trackers

Refresh Leechers : Updated August 15, 2017

1. udp://open.demonii.com:1337/announce

2. udp://tracker.publicbt.com:80/announce

3. udp://tracker.openbittorrent.com:80/announce

4. udp://tracker.istole.it:80/announce

5. http://tracker.aletorrenty.pl:2710/announce

6. http://torrent.gresille.org/announce

7. udp://tracker.pomf.se:80/announce

8. udp://shadowshq.yi.org:6969/announce

9. udp://9.rarbg.me:2710/announce

10. udp://coppersurfer.tk:6969/announce

Comments

You must log in to add a comment.

Embed Code

Sharing Widget

Related torrents

FILENAME SIZE SEEDS PEERS ADDED UPD
[i] SILVER SURFER - The Complete ANIMATED Series (1998) - 720p Web-DL x264
posted by halk1lmer in Series - Misc
2.84 GB 7 3 12 months 10 months

Top Anime ( auto generated report )

FILENAME SIZE SEEDS PEERS ADDED UPD
[i] Lupin III - La pietra della saggezza (1978).H264.4xIta.Jpn.Ac3.5.1.sub.ita.iCV-MIRCrew 1.36 GB 14 5 1 day 22 hours
[i] Lupin III - Il castello di Cagliostro - Rupan sansei Kariosutoro no shiro (1979).H264.ita.jpn-5.1.sub.ita.iCV-MIRCrew 1.5 GB 1 24 18 hours 16 hours