Your IP Address is . Location is Your ISP and Government can track your torrent activity! Hide your IP with a VPN!

What Happened in Vegas 2017 1080p WEB-DL x264 ESub

DOWNLOAD TORRENT DOWNLOAD DOWNLOAD ANONYMOUS

Posted by moviefreak •908 on February 12, 2018 in Movies » Documentary , verified torrent

Size: 1.3 GB , Seeds: 15 , Peers: 4 ( Updated February 18, 2018 - Refresh )

* Download via Magnet Link , * To download files you need a Bittorrent Client , * How to download torrents from Bit Torrent Scene?

Scrape History ( seeds + peers )

Internal Files

What Happened in Vegas 2017 1080p WEB-DL x264 ESub
What Happened in Vegas 2017 1080p WEB-DL x264 ESub.mkv   1.3 GB

Hash Code

59be429f1e22b2784b76c58ddfca77c89c9f0e65

Description


SCREENSHOT

General
Format : Matroska
Format version : Version 4 / Version 2
File size : 1.30 GiB
Duration : 1 h 41 min
Overall bit rate : 1 820 kb/s

Video
ID : 1
Format : AVC
Format/Info : Advanced Video Codec
Format profile : [email protected]
Format settings : CABAC / 4 Ref Frames
Format settings, CABAC : Yes
Format settings, ReFrames : 4 frames
Codec ID : V_MPEG4/ISO/AVC
Duration : 1 h 41 min
Bit rate : 1 700 kb/s
Width : 1 920 pixels
Height : 1 080 pixels
Display aspect ratio : 16:9
Frame rate mode : Constant
Frame rate : 23.976 (24000/1001) FPS
Color space : YUV
Chroma subsampling : 4:2:0
Bit depth : 8 bits
Scan type : Progressive
Bits/(Pixel*Frame) : 0.034
Stream size : 1.20 GiB (93%)
Writing library : x264 core 148 r2708 86b7198
Default : Yes
Forced : No

Audio
ID : 4
Format : AAC
Format/Info : Advanced Audio Codec
Format profile : LC
Codec ID : A_AAC-2
Duration : 1 h 41 min
Bit rate : 128 kb/s
Channel(s) : 2 channels
Channel positions : Front: L R
Sampling rate : 44.1 kHz
Frame rate : 43.066 FPS (1024 SPF)
Compression mode : Lossy
Stream size : 93.4 MiB (7%)
Language : English
Default : Yes
Forced : No

Text #1
ID : 2
Format : UTF-8
Codec ID : S_TEXT/UTF8
Codec ID/Info : UTF-8 Plain Text
Duration : 1 h 41 min
Bit rate : 108 b/s
Count of elements : 2245
Stream size : 80.7 KiB (0%)
Language : English
Default : No
Forced : No

Text #2
ID : 3
Format : UTF-8
Codec ID : S_TEXT/UTF8
Codec ID/Info : UTF-8 Plain Text
Duration : 1 h 41 min
Bit rate : 113 b/s
Count of elements : 2439
Stream size : 84.4 KiB (0%)
Title : SDH
Language : English
Default : No
Forced : No





SCREENSHOT
SCREENSHOT
SCREENSHOT
SCREENSHOT
SCREENSHOT
SCREENSHOT
SCREENSHOT
SCREENSHOT
SCREENSHOT
SCREENSHOT
SCREENSHOT

Trackers

Refresh Leechers : Updated February 18, 2018

1. udp://tracker.coppersurfer.tk:6969/announce

2. udp://tracker.leechers-paradise.org:6969/announce

3. udp://inferno.demonoid.pw:3391/announce

4. udp://tracker.tntvillage.scambioetico.org:2710/announce

5. udp://tracker.pirateparty.gr:6969/announce

6. udp://9.rarbg.com:2770/announce

7. udp://public.popcorn-tracker.org:6969/announce

8. udp://tracker.zer0day.to:1337/announce

9. http://bigfoot1942.sektori.org:6969/announce

10. udp://ipv4.tracker.harry.lu:80/announce

11. udp://shadowshq.yi.org:6969/announce

12. udp://tracker.vanitycore.co:6969/announce

13. udp://tracker.opentrackr.org:1337/announce

14. udp://explodie.org:6969/announce

15. udp://tracker.zer0day.to:1337/announce

16. udp://tracker.leechers-paradise.org:6969/announce

17. udp://coppersurfer.tk:6969/announce

Comments

You must log in to add a comment.

Embed Code

Sharing Widget

Related torrents

FILENAME SIZE SEEDS PEERS ADDED UPD
[i] What Happened in Vegas 2017 480p WEB-DL x264-RMTeam 565.53 MB 15 1 2 weeks 3 hours
[i] Motives and Murders S04E02 What Happened in Vegas 720p HDTV x264-TERRA
posted by brasseur0ph in Series - Misc
931.69 MB 0 0 3 years 6 months
[i] Motives.and.Murders.S04E02.What.Happened.in.Vegas.480p.HDTV.x264 219.25 MB 0 0 3 years 6 months
[i] Motives.and.Murders.S04E02.What.Happened.in.Vegas.720p.HDTV.x264 950.3 MB 0 0 3 years 6 months
[i] Motives and Murders S04E02 What Happened in Vegas 720p HDTV x264 946.07 MB 0 1 1 year 5 months
[i] Motives and Murders S04E02 What Happened in Vegas HDTV XviD-AFG 435.25 MB 0 2 1 year 5 months

Top Movies ( auto generated report )

FILENAME SIZE SEEDS PEERS ADDED UPD
[i] Justice League (2017) [1080p] [YTS AG] 1.82 GB 12547 9377 5 days 2 days
[i] Justice League (2017) [720p] [YTS AG] 879.76 MB 7735 3261 6 days 2 hours
[i] Black.Panther.2018.ENG.HDCAM.x264[SpaceMov] 1.16 GB 4006 1004 4 days 8 hours
[i] Three Billboards Outside Ebbing, Missouri (2017) [1080p] [YTS AG] 1.75 GB 3285 2683 5 days 4 days
[i] Three Billboards Outside Ebbing, Missouri (2017) [720p] [YTS AG] 847.2 MB 2775 2578 5 days 4 days
[i] The Gateway (2018) [720p] [YTS AG] 672.53 MB 2155 1029 4 days 3 days
[i] The Gateway (2018) [1080p] [YTS AG] 1.38 GB 2154 876 4 days 3 days
[i] The Adventurers (2017) [BluRay] [720p] [YTS AM] 795.88 MB 2099 1201 3 days 2 days
[i] Just Getting Started (2017) [720p] [YTS AG] 666.54 MB 1811 1115 5 days 4 days
[i] Jagga Jasoos (2017) [720p] [YTS AG] 1.17 GB 1629 1785 5 days 4 days